M1 pro ffmpeg

e yooso z 88 software download. siren head gmod map. keychron q1 knob pcb. The maximum horizontal pixel count seems to be constrained on the entry-level M1 > configurations to 6K ( M1 Pro/Max/Ultra seems to be unaffected) which might pose an issue to users with ultra-wide screens trying to go beyond a certain horizontal resolution (the limit seems to be 3072px HiDPI which is ... Jul 13, 2021 · 13 July 2021. Using ffmpeg on M1 Mac is slow, hot, and the fan will kick in. The solution is to specify videotoolbox as the encoder, which will use the hardware to accelerate the process. Add the option -vcodec hevc_videotoolbox for h265, and -vcodec h264_videotoolbox for h264. ffmpeg -i "input.mov" -vcodec hevc_videotoolbox -b:v 500k -n ... The new M1 Pro and M1 Max chips include dedicated hardware support for ProRes formats. We have implemented support for the new technology in the latest public Beta. Our …2012 Macbook Pro, macOS Mojave 10.14.6 ffmpeg version 3.4.8 ffplay version 4.3.2 (my executable was named ffplay4) List the audio and video input devices with ffmpeg -f avfoundation -list_devices true -i "" On the 2012 MBP, the first video device (index 0) is FaceTime HD Camera (Built-in) and the first audio device (index 0) is Built-in Microphone.Jul 13, 2021 · Using ffmpeg on M1 Mac is slow, hot, and the fan will kick in. The solution is to specify videotoolbox as the encoder, which will use the hardware to accelerate the process. Add the option -vcodec hevc_videotoolbox for h265, and -vcodec h264_videotoolbox for h264. ffmpeg -i "input.mov" -vcodec hevc_videotoolbox -b:v 500k -n "output.mov" 3 เม.ย. 2565 ... 我系统的版本情况,如果跟我系统不同可能不行.网上好多好多方法都觉得太复杂了,用HomeBrew安装的确方便但看了下所需依赖吓了一跳.FFMPEG. 今天测试了M1芯片的Macbook pro的FFmpeg的速度,到2021年写这篇文章为止,FFmpeg还没有arm编译的原生版本,所以转码是使用x86版本转译,按照经验性能上还有20%左右的损失。 所用的样本视频是用苹果11手机拍摄的4K视频。 CPU编码采用的是crf模式,硬件编码采用VBR ...FFmpeg Unterstützungsstatus für neue Apple Silicon M1 Macbooks. Play, record, convert, and stream audio and video Ist Apple Silicon bereit für FFmpeg?, Rosetta 2 support for FFmpeg, FFmpeg on M1 Macbook Air, FFmpeg on M1 Macbook Pro, FFmpeg on M1 Mac Mini, FFmpeg on M1 iMac 1860 cavalry saberUSGI M1 Garand rifles from Winchester, HRA, Springfield and International Harvester. Collector and shooter grades available. M1903/1903-A3 US Military surplus Model 1903 and 1903-A3 rifles. Manufacturers include Springfield Armory, Remington and Smith Corona.how much of that added density is used for what kind of performance and how much is used to prioritize efficiency is up to the chip designers -- for the m1 you get a couple cores that focus on performance and a couple cores that focus on efficiency, plus a lot of area for the gpu and a not insignificant area for the mysterious (to me at least) …Dec 02, 2020 · question so i've been debating on pulling the trigger on the new m1 macbooks and i finally did it today, sold my 15 inch 2017 macbook pro & i went with the base model 8gb 512gb version of the m1 macbook pro. because i didn't want to wait 1+ months to get the 16gb version w/ 1tb ssd i've been watching video reviews on them since they shipped and i … The M1 Pro is manufactured in 5 nm at TSMC and integrates 33.7 billion transistors. The peak power consumption of the chip was advertised around 30W for CPU intensive tasks. In the Prime95...FFmpeg Unterstützungsstatus für neue Apple Silicon M1 Macbooks. Play, record, convert, and stream audio and video Ist Apple Silicon bereit für FFmpeg?, Rosetta 2 support for FFmpeg, FFmpeg on M1 Macbook Air, FFmpeg on M1 Macbook Pro, FFmpeg on M1 Mac Mini, FFmpeg on M1 iMacSid Meier's Civilization VI runs at 46 fps on the M1 Pro (at 1512x982p resolution) and 46 fps on the M1 Max (1728x1080). These numbers are marginally better than the 37 and 38 fps reached on...Apple M1 AMD Ryzen 7 5800X 8-Core Core Count 8 8 Thread Count 8 16 CPU Clock * 2.1 GHz 3.8 GHz Core Family Zen 3 First Appeared 2020 2020 Overall Percentile 32nd 63rd Total OpenBenchmarking.org Results 9,086 32,891 Qualified Test Combinations 474 954 Performance Per Dollar Affiliate Shopping Links * Amazon More Details On OpenBenchmarking.org dusky skin tone girl The enhanced 5nm fabrication process is at the heart of many of ‌M2‌'s performance and efficiency improvements, but the ‌M1 Pro‌ has 13.7 billion additional transistors for a total of …Jan 13, 2021 · Having to deal with a lot of video files on my shiny Mac Mini M1 system is fun as it is an awesome machine for dealing with H.265 (HEVC) videos that are spet out by the newer camera gears like the ... What are the key differences between M1 and Pro Advantages of Apple M1 Pro Around 136.55 GB/s (200%) higher theoretical memory bandwidth Supports up to 32 GB LPDDR5-6400 RAM Supports quad-channel memory Newer - released 11-months later Has 2 more physical cores Advantages of Apple M1 Consumes up to 53% less energy than the M1 Pro – 14 vs 30 Watt 2012 Macbook Pro, macOS Mojave 10.14.6 ffmpeg version 3.4.8 ffplay version 4.3.2 (my executable was named ffplay4) List the audio and video input devices with ffmpeg -f avfoundation -list_devices true -i "" On the 2012 MBP, the first video device (index 0) is FaceTime HD Camera (Built-in) and the first audio device (index 0) is Built-in Microphone.Codec ID : V_MPEGH/ISO/HEVC Duration : 2 h 28 min Bit rate : 64.3 Mb/s Width : 3 840 pixels Height : 2 160 pixels Display aspect ratio : 16:9 Frame rate mode : Constant Frame rate : 23.976 (24000/1001) FPS Color space : YUV Chroma subsampling : 4:2:0 (Type 2) Bit depth : 10 bits Bits/ (Pixel*Frame) : 0.323 Stream size : 66.8 GiB (87%)The die size of the M2 chip falls between the M1 and M1 Pro. Apple Like Intel's hybrid (Alder Lake) 12th-gen desktop and mobile chips, there are combinations of performance and efficiency cores ... turkey trot 2022 boise I'm trying to build a universal binary of ffmpeg on MacOS, by compiling it twice (for arm64 and x86_64) and then using the lipo tool to combine the resulting binaries. I'm on an M1 Mac, so uname -m returns arm64 on my machine. When running the configure script like so:./configure --arch=x86_64 It outputs:Hi, do you have plans to support the Apple M1 hardware encoders that are supported in ffmpeg? h264_videotoolbox for H.264, hevc_videotoolbox for H.265 These are available in FFmpeg builds https://t...Codec ID : V_MPEGH/ISO/HEVC Duration : 2 h 28 min Bit rate : 64.3 Mb/s Width : 3 840 pixels Height : 2 160 pixels Display aspect ratio : 16:9 Frame rate mode : Constant Frame rate : 23.976 (24000/1001) FPS Color space : YUV Chroma subsampling : 4:2:0 (Type 2) Bit depth : 10 bits Bits/ (Pixel*Frame) : 0.323 Stream size : 66.8 GiB (87%) chula vista middle attendanceThis auction is for a magazine for an M1 Carbine. The magazine is in good shape with no dents or dings. But there are scratches. The magazine will hold a maximum of 10, 30 caliber rounds. ... connect 2 lg monitors to macbook pro. It would be unrealistic to think that I'm going to find USGI mags except peacemeal at shows. These are new magazines ...Video Encoding. The quality of encoded video depends on various features in use by the encoder. To encode a 720p YUV, use the following command. ffmpeg -y -vsync 0 –s …FFMPEG on Apple Sillicon (M1 Mac Mini 8Gb) I've been playing with a few builds of ffmpeg on my 8Gb M1 Mac Mini and though you might be interested in the results.c I used four builds ffmpeg built with x265 apple NEON patch provided to the Handbreak project ffmpeg built with x265 using its own aarch64 optimisations ffmpeg from macportsOct 31, 2022 · Even when I start second ffmpeg encoder, the frames decreases to 4-5fps. How can I solve cpu consumption problem for libvpx codec on Mac Pro - M1 Pro chip ? xxx | ffmpeg -f h264 -i pipe:0 -f rtp -codec:v libvpx -filter:v scale=310:420 -preset ultrafast -minrate 500k -maxrate 500k -b:v 500k -crf 40 "rtp://localhost:12333?pkt_size=1200" Oct 19, 2021 · In the case of the M1 Pro, the 14-core variant is thought to run at up to 4.5 teraflops, while the advertised 16-core is believed to manage 5.2 teraflops. For the M1 Max, the 24-core version... Guide. Before you start you must install arm64-based Homebrew to /opt/homebrew. Clone this repository. Run ./build.bash. Oct 18, 2021 · m1 pro has an up-to-16-core gpu that is up to 2x faster than m1 and up to 7x faster than the integrated graphics on the latest 8-core pc laptop chip. 1 compared to a powerful discrete gpu for pc notebooks, m1 pro delivers more performance while using up to 70 percent less power. 2 and m1 pro can be configured with up to 32gb of fast unified … 17-Jun-2022 ... Testing ffmpeg on the M1 Max MacBook Pro vs the Dell XPS 15 with a 12th Gen Intel Core i9 chip, and throwing in the M1 Ultra Mac Studio into ...Shutter Encoder is one of the best video converter software, it handles images and audio too! It has been designed by video editors in order to be as accessible and efficient as possible. Shutter Encoder makes use of FFmpeg to handle its encoding, allowing support for almost. every codec you’ve ever heard of, and many more you haven’t.Run ffmpeg -h encoder=hevc_videotoolbox to list options specific to hevc_videotoolbox. Use -b:v to control quality. -crf is only for libx264, libx265, libvpx, and libvpx-vp9. It will be ignored by other encoders. It will also ignore -preset. hevc_videotoolbox isn't as good as libx265, but it is fast matrix digital rain color Run ffmpeg -h encoder=hevc_videotoolbox to list options specific to hevc_videotoolbox. Use -b:v to control quality. -crf is only for libx264, libx265, libvpx, and libvpx-vp9. It will be ignored by other encoders. It will also ignore -preset. hevc_videotoolbox isn't as good as libx265, but it is fastIn the case of the M1 Pro, the 14-core variant is thought to run at up to 4.5 teraflops, while the advertised 16-core is believed to manage 5.2 teraflops. For the M1 Max, the 24-core version...The new M1 Pro and M1 Max chips include dedicated hardware support for ProRes formats. We have implemented support for the new technology in the latest public Beta. Our …Uninstallation is documented in the FAQ. 1 For 32-bit or PPC support see Tigerbrew. 2 macOS 11 (Big Sur) or higher is best and supported, 10.11 (El Capitan) - 10.15 (Catalina) are unsupported but may work and 10.10 (Yosemite) and older will not run Homebrew at all. For 10.4 (Tiger) - 10.6 (Snow Leopard) see Tigerbrew.With NEON, the M1 is 2x as fast as the i7. nullrecord's not kidding, just built a new version 5.0 ffmpeg binary using libx265 built from its master repo (the NEON patch is now in x265's master repo, but multi-lib builds are broken so still requires some patching) to these are the latest results from my test script.Oct 18, 2021 · m1 pro has an up-to-16-core gpu that is up to 2x faster than m1 and up to 7x faster than the integrated graphics on the latest 8-core pc laptop chip. 1 compared to a powerful discrete gpu for pc notebooks, m1 pro delivers more performance while using up to 70 percent less power. 2 and m1 pro can be configured with up to 32gb of fast unified … ProRes supports different resolutions and chroma sampling schemes. All ProRes422-variants use 4:2:2 10-Bit subsampling formats. Also, ProRes 4444 and 4444 XQ use the 4:4:4 chroma subsampling schema with either 10 or 12-bit depth and can optionally include an alpha channel.Update: running the natively compiled ffmpeg from http://www.osxexperts.net/ is a ~2x improvement over the x86 ffmpeg running through Rosetta 2: https://twit... traffic mirroring ecs 17 bus route winnipeg xmrig segmentation fault. grub zfs features; gotranscript; kinetic power generatorThe M1 Pro is manufactured in 5 nm at TSMC and integrates 33.7 billion transistors. The peak power consumption of the chip was advertised around 30W for CPU intensive tasks. In the Prime95...May 04, 2021 · 今天测试了M1芯片的Macbook pro的FFmpeg的速度,到2021年写这篇文章为止,FFmpeg还没有arm编译的原生版本,所以转码是使用x86版本转译,按照经验性能上还有20%左右的损失。 所用的样本视频是用苹果11手机拍摄的4K视频。 CPU编码采用的是crf模式,硬件编码采用VBR模式 1、H264编码,CPU编码,crf=23,0.18倍速,码率大约是37M ffmpeg -i IMG_2051.MOV -c:v libx264 -preset medium -crf 23 -c:a copy IMG_2051_h264.mp4 2、H265 HEVC编码,CPU编码crf=28,0.077倍速,码率大约是8M Guide. Before you start you must install arm64-based Homebrew to /opt/homebrew. Clone this repository. Run ./build.bash. Initial benchmarks for the ‌MacBook Air‌ running ‌M1‌ natively featured a single-core score of 1,687 and multi-core score of 7,433. Additional benchmarks with ‌M1‌ have since surfaced and are...Here you can convert coherent videos to pictures in FPS with third party software, in m1 mac os system, the famous video processing software:Ffmpeg is recommended Homebrew for installation using the arm architecture. After successful installation, type the ffmpeg command in the terminal to view the version: early morning fitness classes near me Movist Pro. Media player for macOS ... Internet video (Pro version only). You can watch the videos included in ... You can choose FFmpeg/QuickTime decoder.Guide. Before you start you must install arm64-based Homebrew to /opt/homebrew. Clone this repository. Run ./build.bash. In this video I test and compare hardware and software H.264 encoding using FFmpeg on an M1 Mac Mini and an early-2015 Intel Macbook Pro. On the M1 Mac Mini,...Sid Meier’s Civilization VI runs at 46 fps on the M1 Pro (at 1512x982p resolution) and 46 fps on the M1 Max (1728x1080). These numbers are marginally better than the 37 and 38 fps reached on...26 ธ.ค. 2564 ... ... am for the first time using a macOS-based Macbook Pro with an M1 Pro CPU. ... Update: By building my own FFmpeg version VP9 videotoolbox ...TLDR: If you run a Mac using Apple Silicon, update ffmpeg to dramatically speed up your encodes.. Late last year I traded in my beloved iMac Pro for an iMac Pro Portable 14" …FFmpeg Unterstützungsstatus für neue Apple Silicon M1 Macbooks. Play, record, convert, and stream audio and video Ist Apple Silicon bereit für FFmpeg?, Rosetta 2 support for FFmpeg, FFmpeg on M1 Macbook Air, FFmpeg on M1 Macbook Pro, FFmpeg on M1 Mac Mini, FFmpeg on M1 iMacFFmpeg has always been a very experimental and developer-driven project. It is a key component in many multimedia projects and has new features added constantly. Development branch snapshots work really well 99% of the time so people are not afraid to use them. Git Repositories Git Repositories17-Jun-2022 ... Testing ffmpeg on the M1 Max MacBook Pro vs the Dell XPS 15 with a 12th Gen Intel Core i9 chip, and throwing in the M1 Ultra Mac Studio into ...The M1 Pro (14:08) and M1 Max (15:31) MacBooks lasted far longer than the ProArt StudioBook (6:16) and ZBook Fury (7:09). They also bested the Surface Laptop Studio’s best time of 12:03. Like ...Hi, I'm using the M1 binary compiled with NEON extensions from here. You need to sign the binary with the two commands listed there. Works great, and it is 3x faster than the generic ffmpeg from Homebrew without NEON extensions. Btw, without NEON, the M1 encodes x265 way slower than my old Surface Book 2 with an Intel i7-8650U @ 1.90 GHz. how to get mounjaro prescription reddit Hi, I'm using the M1 binary compiled with NEON extensions from here. You need to sign the binary with the two commands listed there. Works great, and it is 3x faster than the generic ffmpeg from Homebrew without NEON extensions. Btw, without NEON, the M1 encodes x265 way slower than my old Surface Book 2 with an Intel i7-8650U @ 1.90 GHz. e yooso z 88 software download. siren head gmod map. keychron q1 knob pcb. The maximum horizontal pixel count seems to be constrained on the entry-level M1 configurations to 6K ( M1 Pro/Max/Ultra seems to be unaffected) which might pose an issue to users with ultra-wide screens trying to go beyond a certain horizontal resolution (the limit seems to be 3072px …03-Dec-2021 ... Today I compiled the latest FFmpeg build to see if it works with Videotoolbox Prores and VP9 hardware accelerated encoding.1 ก.ค. 2564 ... In the beginning, Apple Final Cut Pro was the most commonly used professional Non-Linear Editing (NLE) solution, but slowly other companies, ...Dec 02, 2020 · question so i've been debating on pulling the trigger on the new m1 macbooks and i finally did it today, sold my 15 inch 2017 macbook pro & i went with the base model 8gb 512gb version of the m1 macbook pro. because i didn't want to wait 1+ months to get the 16gb version w/ 1tb ssd i've been watching video reviews on them since they shipped and i … Testing ffmpeg on the M1 Max MacBook Pro vs the Dell XPS 15 with a 12th Gen Intel Core i9 chip, and throwing in the M1 Ultra Mac Studio into the mix too. ️ A... AboutPressCopyrightContact... Yes (4.3.1) FFmpeg Play, record, convert, and stream audio and video Is Apple silicon ready for FFmpeg?, Rosetta 2 support for FFmpeg, FFmpeg on M1 Macbook Air, FFmpeg on M1 … south indian aunty having sex If you decode AV1 without hardware-acceleration, you will need a 12-core 3900x to decode 8K and using almost all of your cpus. So M1 is using hardware-acceleration for sure. And in-browser...FFMPEG. 今天测试了M1芯片的Macbook pro的FFmpeg的速度,到2021年写这篇文章为止,FFmpeg还没有arm编译的原生版本,所以转码是使用x86版本转译,按照经验性能上还有20%左右的损失。 所用的样本视频是用苹果11手机拍摄的4K视频。 CPU编码采用的是crf模式,硬件编码采用VBR ...Before you can play with FFMPEG on a Mac Mini M1, you need to install it via Homebrew — which is the missing package manager for Mac.Oct 27, 2021 · Sid Meier’s Civilization VI runs at 46 fps on the M1 Pro (at 1512x982p resolution) and 46 fps on the M1 Max (1728x1080). These numbers are marginally better than the 37 and 38 fps reached on... We start with a simple FFmpeg command for encoding a video file. With a fixed bitrate and the libx264 software encoder: ./ffmpeg -i input.mp4 -c:v libx264 -b:v 6000k -an output.mp4 Now the same command with the videotoolbox framework from Apple. This uses a hardware acceleration if possible: huge temp drop 13 dpo bfp In this video I test and compare hardware and software H.264 encoding using FFmpeg on an M1 Mac Mini and an early-2015 Intel Macbook Pro. On the M1 Mac Mini,... Run ffmpeg which I installed via homebrew. What happened (include all command output)? ... It's a MacBook Pro (13-inch, M1, 2020) running macOS Big Sur Version 11.2 ...I'm trying to build a universal binary of ffmpeg on MacOS, by compiling it twice (for arm64 and x86_64) and then using the lipo tool to combine the resulting binaries. I'm on an M1 Mac, so uname -m returns arm64 on my machine. When running the configure script like so:./configure --arch=x86_64 It outputs:Jan 01, 2022 · Here you can convert coherent videos to pictures in FPS with third party software, in m1 mac os system, the famous video processing software:Ffmpeg is recommended Homebrew for installation using the arm architecture. After successful installation, type the ffmpeg command in the terminal to view the version: ProRes supports different resolutions and chroma sampling schemes. All ProRes422-variants use 4:2:2 10-Bit subsampling formats. Also, ProRes 4444 and 4444 XQ use the 4:4:4 chroma subsampling schema with either 10 or 12-bit depth and can optionally include an alpha channel.You need to first run brew uninstall ffmpeg before you can use this tap. Installing with options To see the list of supported options for this formula, run: brew options homebrew-ffmpeg/ffmpeg/ffmpeg Then, you can run: brew install homebrew-ffmpeg/ffmpeg/ffmpeg --with-<option1> --with-<option2> ...Nov 11, 2020 · The company has announced that they are working on this new software designed for the M1, so it should be noted that the current version of Parallels will not work on Apple’s new Mac computers. There’s no word on when this new M1-supported version of Parallels will be released, but if you do rely quite a bit on Parallels, then this is good news. e yooso z 88 software download. siren head gmod map. keychron q1 knob pcb. The maximum horizontal pixel count seems to be constrained on the entry-level M1 configurations to 6K ( M1 Pro/Max/Ultra seems to be unaffected) which might pose an issue to users with ultra-wide screens trying to go beyond a certain horizontal resolution (the limit seems to be 3072px …What happened to the Quad M1 Max Mac Pro? Is Apple KILLING Facebook? Microsoft says Apple is OUT OF CONTROL!FFmpeg is an open-source multimedia framework which provides powerful multimedia handling capabilities to the developers, content owners and publishers. FFmpeg boasts a full-fledged support for all the major codecs and audio/video format. Besides, it also provides seamless video streaming and web hosting services.m1 pro has an up-to-16-core gpu that is up to 2x faster than m1 and up to 7x faster than the integrated graphics on the latest 8-core pc laptop chip. 1 compared to a powerful discrete gpu for pc notebooks, m1 pro delivers more performance while using up to 70 percent less power. 2 and m1 pro can be configured with up to 32gb of fast unified …Hi, I'm using the M1 binary compiled with NEON extensions from here. You need to sign the binary with the two commands listed there. Works great, and it is 3x faster than the generic ffmpeg from Homebrew without NEON extensions. Btw, without NEON, the M1 encodes x265 way slower than my old Surface Book 2 with an Intel i7-8650U @ 1.90 GHz.I'm trying to build a universal binary of ffmpeg on MacOS, by compiling it twice (for arm64 and x86_64) and then using the lipo tool to combine the resulting binaries. I'm on an M1 Mac, so uname -m returns arm64 on my machine. When running the configure script like so:./configure --arch=x86_64 It outputs:Install FFmpeg on Mac using the MacPorts You must first to was to obtain the current MacPorts which an easy and simple installer and after that install it in your Mac system. Afterward, install on the FFmpeg. " sudo-port install ffmpeg " Install FFmpeg on Mac using the Homebrew You must install the Homebrew.Oct 25, 2021 · The new M1 Pro and M1 Max chips include dedicated hardware support for ProRes formats. We have implemented support for the new technology in the latest public Beta. Our preliminary benchmarking on 4K and 8K ProRes shows impressive performance gains compared with the previous generation 16” MacBook Pros. Hi, I'm using the M1 binary compiled with NEON extensions from here. You need to sign the binary with the two commands listed there. Works great, and it is 3x faster than the generic ffmpeg from Homebrew without NEON extensions. Btw, without NEON, the M1 encodes x265 way slower than my old Surface Book 2 with an Intel i7-8650U @ 1.90 GHz.Also known as: [email protected] Play, record, convert, and stream audio and video. https://ffmpeg.org/. License: GPL-2.0-or-later.FFMPEG. 今天测试了M1芯片的Macbook pro的FFmpeg的速度,到2021年写这篇文章为止,FFmpeg还没有arm编译的原生版本,所以转码是使用x86版本转译,按照经验性能上还有20%左右的损失。 所用的样本视频是用苹果11手机拍摄的4K视频。 CPU编码采用的是crf模式,硬件编码采用VBR ...question so i've been debating on pulling the trigger on the new m1 macbooks and i finally did it today, sold my 15 inch 2017 macbook pro & i went with the base model 8gb 512gb version of the m1 macbook pro. because i didn't want to wait 1+ months to get the 16gb version w/ 1tb ssd i've been watching video reviews on them since they shipped and i …The die size of the M2 chip falls between the M1 and M1 Pro. Apple Like Intel's hybrid (Alder Lake) 12th-gen desktop and mobile chips, there are combinations of performance and efficiency cores ...According Apple, both are now supported via VideoToolBox APIs when running on M1 Pro or M1 Max The latest FFmpeg version (daily build) does have support for it, so it …FFmpeg Unterstützungsstatus für neue Apple Silicon M1 Macbooks. Play, record, convert, and stream audio and video Ist Apple Silicon bereit für FFmpeg?, Rosetta 2 support for FFmpeg, FFmpeg on M1 Macbook Air, FFmpeg on M1 Macbook Pro, FFmpeg on M1 Mac Mini, FFmpeg on M1 iMacMar 30, 2022 · I'm trying to build a universal binary of ffmpeg on MacOS, by compiling it twice (for arm64 and x86_64) and then using the lipo tool to combine the resulting binaries. I'm on an M1 Mac, so uname -m returns arm64 on my machine. When running the configure script like so:./configure --arch=x86_64 It outputs: find deleted apps on iphone FFMPEG. 今天测试了M1芯片的Macbook pro的FFmpeg的速度,到2021年写这篇文章为止,FFmpeg还没有arm编译的原生版本,所以转码是使用x86版本转译,按照经验性能上还有20%左右的损失。 所用的样本视频是用苹果11手机拍摄的4K视频。 CPU编码采用的是crf模式,硬件编码采用VBR ...Build script for ffmpeg targeting the latest open source video codecs running on macOS using Apple's M1 processor. apple ffmpeg neon mac-osx codecs Readme 91 stars 7 watching 16 forks Releases 2 2.0 Latest on Feb 14 + 1 release Packages No packages published Contributors 2 Vargol cpylua fp33 Languages Shell 100.0% Terms Privacy Security Status Docs getting out app customer service Unfortunately I'm also having this experience with my M1 MBP 16 Gb / 512 Gb. The whole computer feels sluggish and laggy even when performing simple tasks such as web browsing or opening and using simple built-in apps. This is very disappointing, especially that I ditched my Windows 10 laptop for the Mac experience based on my iPhone 12 Pro Max ...この記事では、Appleの独自設計チップ「M1チップ」について解説していきます。ProやMax、Ultraなど最近は様々な種類があるM1チップ。種類ごとのスペックや評判、搭載されているMacやiPadも一覧にして紹介します。気になっている方はこの記事を見て理解を深めてみてください。1 พ.ย. 2564 ... Habe vorhin sowohl mit ffmpeg (selbst für Apple Silicon compiliert) und Handbrake getestet und das MBP 14" mit M1 Pro CPU ist mit ca.Codec ID : V_MPEGH/ISO/HEVC Duration : 2 h 28 min Bit rate : 64.3 Mb/s Width : 3 840 pixels Height : 2 160 pixels Display aspect ratio : 16:9 Frame rate mode : Constant Frame rate : 23.976 (24000/1001) FPS Color space : YUV Chroma subsampling : 4:2:0 (Type 2) Bit depth : 10 bits Bits/ (Pixel*Frame) : 0.323 Stream size : 66.8 GiB (87%)apple. ffmpeg. In this article, we will learn how to use FFmpeg to convert videos to Apple ProRes 422 and 444 formats. To try this tutorial on a Windows machine, you can …03-Dec-2021 ... Today I compiled the latest FFmpeg build to see if it works with Videotoolbox Prores and VP9 hardware accelerated encoding.Dependency Description Remarks; chromaprint: Chromaprint audio fingerprinting library: See the workaround in the Troubleshooting section.: decklink: Enable DeckLink support: The DeckLink SDK has to be installed before running the FFmpeg formula.The Apple M1 Pro 14-Core-GPU is an integrated graphics card by Apple offering 14 of the 16 cores in the M1 Pro Chip. The 1792 ALUs offer a theoretical performance of up to 4.6 Teraflops …Download ffmpeg Format Converter and enjoy it on your iPhone, iPad and iPod ... Mac: Requires macOS 11.0 or later and a Mac with Apple M1 chip or later.What are the key differences between M1 and Pro Advantages of Apple M1 Pro Around 136.55 GB/s (200%) higher theoretical memory bandwidth Supports up to 32 GB LPDDR5-6400 RAM Supports quad-channel memory Newer - released 11-months later Has 2 more physical cores Advantages of Apple M1 Consumes up to 53% less energy than the M1 Pro – 14 vs 30 Watt bill monroe 6 ธ.ค. 2563 ... Video encoding with x264 and x265 takes a lot of CPU usage. This is because you're using a software encoder. The whole encoding is done in ...May 04, 2021 · 今天测试了M1芯片的Macbook pro的FFmpeg的速度,到2021年写这篇文章为止,FFmpeg还没有arm编译的原生版本,所以转码是使用x86版本转译,按照经验性能上还有20%左右的损失。 所用的样本视频是用苹果11手机拍摄的4K视频。 CPU编码采用的是crf模式,硬件编码采用VBR模式 1、H264编码,CPU编码,crf=23,0.18倍速,码率大约是37M ffmpeg -i IMG_2051.MOV -c:v libx264 -preset medium -crf 23 -c:a copy IMG_2051_h264.mp4 2、H265 HEVC编码,CPU编码crf=28,0.077倍速,码率大约是8M The M1 Pro is manufactured in 5 nm at TSMC and integrates 33.7 billion transistors. The peak power consumption of the chip was advertised around 30W for CPU intensive tasks. In the Prime95...The company has announced that they are working on this new software designed for the M1, so it should be noted that the current version of Parallels will not work on Apple’s new Mac computers. There’s no word on when this new M1-supported version of Parallels will be released, but if you do rely quite a bit on Parallels, then this is good news.Jan 01, 2022 · Here you can convert coherent videos to pictures in FPS with third party software, in m1 mac os system, the famous video processing software:Ffmpeg is recommended Homebrew for installation using the arm architecture. After successful installation, type the ffmpeg command in the terminal to view the version: taobao telegram group Testing ffmpeg on the M1 Max MacBook Pro vs the Dell XPS 15 with a 12th Gen Intel Core i9 chip, and throwing in the M1 Ultra Mac Studio into the mix too. ️ A... AboutPressCopyrightContact...Hi, I'm using the M1 binary compiled with NEON extensions from here. You need to sign the binary with the two commands listed there. Works great, and it is 3x faster than the generic ffmpeg from Homebrew without NEON extensions. Btw, without NEON, the M1 encodes x265 way slower than my old Surface Book 2 with an Intel i7-8650U @ 1.90 GHz. Download ffmpeg Format Converter and enjoy it on your iPhone, iPad and iPod ... Mac: Requires macOS 11.0 or later and a Mac with Apple M1 chip or later.FFmpeg 3.4.12 "Cantor" 3.4.12 was released on 2022-10-27. It is the latest stable FFmpeg release from the 3.4 release branch, which was cut from master on 2017-10-11. It includes the …What are the key differences between M1 and Pro Advantages of Apple M1 Pro Around 136.55 GB/s (200%) higher theoretical memory bandwidth Supports up to 32 GB LPDDR5-6400 RAM Supports quad-channel memory Newer - released 11-months later Has 2 more physical cores Advantages of Apple M1 Consumes up to 53% less energy than the M1 Pro – 14 vs 30 WattPro Tools-Audio Post for Film and Professionals ... Here is my M1 config that is confirmed working (FB360 Encoder only, not the DAW plugins).Update: running the natively compiled ffmpeg from http://www.osxexperts.net/ is a ~2x improvement over the x86 ffmpeg running through Rosetta 2: https://twit... women camel toe Sid Meier’s Civilization VI runs at 46 fps on the M1 Pro (at 1512x982p resolution) and 46 fps on the M1 Max (1728x1080). These numbers are marginally better than the 37 and 38 fps reached on...Having a productive tools/software which comptiable to latest M1 chip might help you to customize your own pipeline to batch process tons of vedio file just needs one-click. It saves your time. FFmpeg as a well-known cml tools for video editing, you all might heard it before. YouYouBuLuo, here, sharing my experience of installing ARM base-FFmpeg.The new M1 Pro and M1 Max chips include dedicated hardware support for ProRes formats. We have implemented support for the new technology in the latest public Beta. Our preliminary benchmarking on 4K and 8K ProRes shows impressive performance gains compared with the previous generation 16" MacBook Pros. We're still testing but the ...The M1 Pro is manufactured in 5 nm at TSMC and integrates 33.7 billion transistors. The peak power consumption of the chip was advertised around 30W for CPU intensive tasks. In the Prime95... sexy big tits and ass FFmpeg is an open-source multimedia framework which provides powerful multimedia handling capabilities to the developers, content owners and publishers. FFmpeg boasts a full-fledged support for all the major codecs and audio/video format. Besides, it also provides seamless video streaming and web hosting services.Hi, I'm using the M1 binary compiled with NEON extensions from here. You need to sign the binary with the two commands listed there. Works great, and it is 3x faster than the generic ffmpeg from Homebrew without NEON extensions. Btw, without NEON, the M1 encodes x265 way slower than my old Surface Book 2 with an Intel i7-8650U @ 1.90 GHz. Now, let's talk about the CPU performance of all three chips. According to Apple, the M1 Pro is 70% faster than last year's M1 chip. And since the M1 Pro and M1 Max have the same CPU architecture, the 70% jump remains the same for the M1 Max too. And the same is reflected in Geekbench scores as well. The Apple M1 scores around 1700 in ...Update: running the natively compiled ffmpeg from http://www.osxexperts.net/ is a ~2x improvement over the x86 ffmpeg running through Rosetta 2: https://twit... The new M1 Pro and M1 Max chips include dedicated hardware support for ProRes formats. We have implemented support for the new technology in the latest public Beta. Our preliminary benchmarking on 4K and 8K ProRes shows impressive performance gains compared with the previous generation 16" MacBook Pros. We're still testing but the ... famous hindu temples in usa Also known as: [email protected] Play, record, convert, and stream audio and video. https://ffmpeg.org/. License: GPL-2.0-or-later.FFmpeg Unterstützungsstatus für neue Apple Silicon M1 Macbooks. Play, record, convert, and stream audio and video Ist Apple Silicon bereit für FFmpeg?, Rosetta 2 support for FFmpeg, FFmpeg on M1 Macbook Air, FFmpeg on M1 Macbook Pro, FFmpeg on M1 Mac Mini, FFmpeg on M1 iMac Jul 13, 2021 · Using ffmpeg on M1 Mac is slow, hot, and the fan will kick in. The solution is to specify videotoolbox as the encoder, which will use the hardware to accelerate the process. Add the option -vcodec hevc_videotoolbox for h265, and -vcodec h264_videotoolbox for h264. ffmpeg -i "input.mov" -vcodec hevc_videotoolbox -b:v 500k -n "output.mov" The 16-core GPU in the M1 Pro is thought to be 5.2 teraflops, which puts it in the same ballpark as the Radeon RX 5500 in terms of performance. The Nvidia equivalent would …The M1 Pro is manufactured in 5 nm at TSMC and integrates 33.7 billion transistors. The peak power consumption of the chip was advertised around 30W for CPU intensive tasks. In the Prime95... bomba tv chat